Ben 10: Omniverse

Ben 10: Omniverse – Depois de Gwen e Kevin foram embora, Ben está animado para se tornar um herói solo, mas o Vô Max tem outros planos. Ele escala um novo encanador, Rook, para ser o novo parceiro de Ben e ajudá-lo a explorar uma cidade subterrânea, a misteriosa Cidade de Baixo. Com um novo Omnitrix e 10 novos alienígenas, Ben terá que enfrentar novamente vilões do passado e também encarar uma nova ameaça: Khyber. Khyber é um caçador do espaço e está de olho em sua próxima caça: Ben. Ele porta o Nemetrix, um dispositivo criado pelo Dr. Psychobos por razões desconhecidas (talvez para tentar ser melhor que Azmuth, seu maior inimigo). Khyber tem um mascote que, com o Nemetrix, pode se transformar em 10 predadores que são capazes de derrotar os alienígenas de Ben, e será um desafio muito grande enfrentá-los. Além disso, o novo show trás de volta as aventuras do Ben de 11 anos, ainda com seus atos heroicos e com a ajuda de seu avô Max e sua prima Gwen. O jovem Ben descobre um novo alienígena, Feedback, que o irá ajudá-lo a enfrentar um novo vilão: Malware. Malware é um Mechamorpho Galvânico que sabe tudo sobre o Omnitrix e tem como objetivo destruir Azmuth. Ele é muito poderoso, e promete trazer muitos problemas para o herói.

Ben 10: Omniverse

Título Original: Ben 10: Omniverse
Qualidade: WEB-DL 1080P
Áudio: Dual Áudio
Legenda: Embutida (selecionável)
 
1ª Temporada – WEB-DL 1080P

Ben 10: Omniverse Bluray 1080p Bluray Remux 4K UHD 2160p HDR

Spoiler

Video
ID : 1
Format : AVC
Format/Info : Advanced Video Codec
Format profile : High@L4
Format settings : CABAC / 4 Ref Frames
Format settings, CABAC : Yes
Format settings, Reference fra : 4 frames
Codec ID : V_MPEG4/ISO/AVC
Duration : 22 min 33 s
Bit rate mode : Variable
Bit rate : 8 250 kb/s
Maximum bit rate : 12.4 Mb/s
Width : 1 920 pixels
Height : 1 080 pixels
Display aspect ratio : 16:9
Frame rate mode : Constant
Frame rate : 29.970 (30000/1001) FPS
Color space : YUV
Chroma subsampling : 4:2:0
Bit depth : 8 bits
Scan type : Progressive
Bits/(Pixel*Frame) : 0.133
Stream size : 1.29 GiB (91%)
Writing library : x264 core 157 r2965 861cec4
Encoding settings : cabac=1 / ref=4 / deblock=1:0:0 / analyse=0x3:0x113 / me=hex / subme=7 / psy=1 / psy_rd=1.00:0.00 / mixed_ref=1 / me_range=16 / chroma_me=1 / trellis=1 / 8x8dct=1 / cqm=0 / deadzone=21,11 / fast_pskip=1 / chroma_qp_offset=-2 / threads=34 / lookahead_threads=5 / sliced_threads=0 / nr=0 / decimate=1 / interlaced=0 / bluray_compat=0 / constrained_intra=0 / bframes=3 / b_pyramid=2 / b_adapt=1 / b_bias=0 / direct=1 / weightb=1 / open_gop=0 / weightp=2 / keyint=120 / keyint_min=120 / scenecut=40 / intra_refresh=0 / rc_lookahead=40 / rc=2pass / mbtree=1 / bitrate=8250 / ratetol=1.0 / qcomp=0.60 / qpmin=0 / qpmax=69 / qpstep=4 / cplxblur=20.0 / qblur=0.5 / vbv_maxrate=12375 / vbv_bufsize=6187 / nal_hrd=vbr / filler=0 / ip_ratio=1.40 / aq=1:1.00
Default : Yes
Forced : No
Color range : Limited
Color primaries : BT.709
Transfer characteristics : BT.709
Matrix coefficients : BT.709

Audio #1
ID : 2
Format : AC-3
Format/Info : Audio Coding 3
Commercial name : Dolby Digital
Codec ID : A_AC3
Duration : 22 min 33 s
Bit rate mode : Constant
Bit rate : 384 kb/s
Channel(s) : 2 channels
Channel layout : L R
Sampling rate : 48.0 kHz
Frame rate : 31.250 FPS (1536 SPF)
Compression mode : Lossy
Stream size : 61.9 MiB (4%)
Title : Brazilian Portuguese
Language : Portuguese
Service kind : Complete Main
Default : Yes
Forced : No

Audio #2
ID : 3
Format : AC-3
Format/Info : Audio Coding 3
Commercial name : Dolby Digital
Codec ID : A_AC3
Duration : 22 min 33 s
Bit rate mode : Constant
Bit rate : 384 kb/s
Channel(s) : 2 channels
Channel layout : L R
Sampling rate : 48.0 kHz
Frame rate : 31.250 FPS (1536 SPF)
Compression mode : Lossy
Stream size : 61.9 MiB (4%)
Title : English
Language : English
Service kind : Complete Main
Default : No
Forced : No

Text
ID : 4
Format : UTF-8
Codec ID : S_TEXT/UTF8
Codec ID/Info : UTF-8 Plain Text
Duration : 21 min 21 s
Bit rate : 228 b/s
Frame rate : 0.241 FPS
Count of elements : 309
Stream size : 35.7 KiB (0%)
Language : Portuguese
Default : No
Forced : No

Menu
00:01:28.221 : Intro


Visite nosso fórum / Pedidos de Filmes / Pedidos de Séries

Ben 10: Omniverse Bluray 1080p Bluray Remux 4K UHD 2160p HDR

Entrar

Não tem uma conta? Cadastre-se
Inscrever-se

Já tem uma conta? Entrar